Anahka

Member
  • Content count

    2
  • Joined

  • Last visited

Community Reputation

0 Neutral

About Anahka

  • Birthday 04/27/1983

Contact Methods

  • MSN
    the_bonkers@hotmail.com
  • Website URL
    http://
  1. well.. I tried it.. but it still won't work =/ So I wonder where the problem is... but I haven't ruled out that my computer is f***ing with me though.. ^^
  2. Hi everone! I've got this problem here... have a .cue file which came with a .mp3 file.. but it won't work... what's the problem?! This is how it looks... can somebody plz tell me where the problem is?! PREFORMER "Pulsedriver" TITLE "HARD DANCE MANIA VOL 3" FILE "cd1.mp3" MP3 TRACK 01 AUDIO INDEX 01 00:00:00 TRACK 02 AUDIO INDEX 01 00:30:46 TRACK 03 AUDIO INDEX 01 04:49:02 TRACK 04 AUDIO INDEX 01 09:23:55 TRACK 05 AUDIO INDEX 01 14:12:67 TRACK 06 AUDIO INDEX 01 18:54:32 TRACK 07 AUDIO INDEX 01 23:29:59 TRACK 08 AUDIO INDEX 01 29:06:00 TRACK 09 AUDIO INDEX 01 32:37:21 TRACK 10 AUDIO INDEX 01 38:21:63 TRACK 11 AUDIO INDEX 01 43:11:40 TRACK 12 AUDIO INDEX 01 46:01:17 TRACK 13 AUDIO INDEX 01 50:16:45 TRACK 14 AUDIO INDEX 01 53:30:23 TRACK 15 AUDIO INDEX 01 56:46:56 TRACK 16 AUDIO INDEX 01 60:57:68 Yours truly, Anahka